<?xml version="1.0" standalone="no"?>
<!DOCTYPE svg PUBLIC "-//W3C//DTD SVG 1.1//EN" "http://www.w3.org/Graphics/SVG/1.1/DTD/svg11.dtd" >
<svg xmlns="http://www.w3.org/2000/svg">
<metadata>Generated by IcoMoon</metadata>
<defs>
<font id="icons" horiz-adv-x="1024">
<font-face units-per-em="1024" ascent="960" descent="-64" />
<missing-glyph horiz-adv-x="1024" />
<glyph unicode="&#x20;" horiz-adv-x="512" d="" />
<glyph unicode="&#x41;" glyph-name="american_express" d="M428.714 531.286v23.552h-90.454v-112.98h90.452v23.212h-63.488v22.528h61.782v23.212h-61.782v20.48zM556.032 524.458c0 12.63-5.12 20.14-13.654 24.918-8.876 5.12-18.774 5.462-32.768 5.462h-62.122v-113.322h26.964v41.3h29.012c9.898 0 15.7-1.024 19.796-4.778 4.778-5.462 4.438-15.36 4.438-22.188v-14.336h27.308v22.188c0 10.24-0.682 15.020-4.438 20.822-2.39 3.414-7.51 7.168-13.312 9.558 6.826 3.072 18.774 12.288 18.774 30.38zM520.534 508.416c-3.754-2.39-8.192-2.39-13.312-2.39h-32.768v25.26h33.452c4.778 0 9.558-0.342 12.972-2.048s5.802-5.12 5.802-9.9c-0.342-5.12-2.39-8.876-6.144-10.924zM66.218 466.772h56.32l10.24-25.26h54.954v88.748l39.252-88.748h23.894l39.254 88.748v-88.748h27.648v113.322h-44.714l-32.426-76.8-35.498 76.8h-44.032v-107.178l-46.080 107.178h-40.278l-45.396-105.812v-7.168h26.284l10.58 24.918zM94.208 535.724l18.432-45.056h-36.864l18.432 45.056zM668.672 530.602h25.6v24.236h-26.284c-18.774 0-32.428-4.096-40.96-13.312-11.606-12.288-14.678-27.308-14.678-44.374 0-20.48 4.778-33.452 14.336-43.348 7.51-10.24 21.164-13.996 39.254-12.63h31.744l10.24 25.26h56.32l10.582-25.26h54.956v84.992l51.2-84.992h38.23v113.322h-27.648v-78.848l-47.446 78.848h-41.302v-107.178l-45.74 107.178h-40.278l-38.23-89.088h-12.288c-7.168 0-14.678 1.366-18.774 5.802-5.12 5.802-7.51 14.336-7.51 26.624 0 11.948 3.072 20.822 7.85 25.6 5.462 5.802 10.924 7.168 20.822 7.168zM736.256 535.724l18.774-45.056h-37.206l18.432 45.056zM571.732 554.838h27.648v-113.322h-27.648v113.322zM672.086 329.558c0 12.972-5.462 20.14-13.996 25.26-8.876 4.778-18.774 5.462-32.428 5.462h-62.464v-113.322h27.308v41.302h29.014c9.9 0 16.044-1.024 19.798-5.12 5.12-5.12 4.438-15.36 4.438-22.188v-13.996h27.308v22.528c0 9.9-0.682 15.020-4.438 20.822-2.39 3.414-7.168 7.168-13.312 9.558 6.486 2.39 18.774 11.606 18.774 29.696zM636.586 313.516c-3.754-2.048-8.192-2.39-13.312-2.39h-32.768v25.26h33.452c4.778 0 9.558 0 12.972-2.048 3.414-1.706 5.462-5.462 5.462-10.24s-2.39-8.534-5.802-10.582zM504.832 359.936h-86.356l-34.476-37.206-33.452 37.206h-108.544v-113.322h107.178l34.476 37.548 33.452-37.548h52.564v37.888h33.792c23.552 0 47.104 6.486 47.104 37.888-0.342 31.744-24.236 37.548-45.738 37.548zM335.19 270.506h-66.218v22.528h59.392v23.212h-59.392v20.48h67.926l29.696-33.11-31.404-33.11zM442.71 257.194l-41.642 46.080 41.644 44.716v-90.794zM504.49 307.712h-34.816v28.672h35.156c9.898 0 16.384-4.096 16.384-13.996 0-9.558-6.486-14.678-16.726-14.678zM777.216 336.726v23.212h-90.112v-112.98h90.112v23.552h-63.148v22.528h61.78v23.212h-61.78v20.48zM988.5 303.616v0c-0.682 1.024-1.366 2.048-2.39 2.73-6.144 6.144-16.044 8.876-30.72 9.216l-14.678 0.342c-4.438 0-7.51 0.342-10.582 1.366-3.414 1.366-5.802 4.096-5.802 8.534 0 3.754 1.024 6.144 4.096 8.192 2.73 1.706 6.144 2.048 10.924 2.048h49.152v24.236h-53.932c-28.332 0-38.912-17.408-38.912-33.792 0-35.84 31.744-34.134 57.004-35.158 4.778 0 7.51-0.682 9.558-2.39s3.414-4.096 3.414-7.51c0-3.072-1.366-5.462-3.072-7.51-2.048-2.048-5.802-2.73-10.924-2.73h-51.884v-24.236h52.224c17.408 0 30.038 4.778 36.864 14.336v0 0c3.754 5.462 5.802 12.63 5.802 21.164-0.342 9.9-2.39 16.044-6.144 21.164zM948.908 224.768h-69.972v10.24c-8.192-6.486-22.87-10.24-36.864-10.24h-220.842v36.524c0 4.438-0.342 4.778-4.778 4.778h-3.414v-41.302h-72.704v42.668c-12.288-5.12-25.942-5.802-37.548-5.462h-8.534v-37.548h-88.064l-21.846 24.576-22.87-24.576h-144.044v158.038h145.75l20.822-24.236 22.188 24.236h97.62c11.264 0 29.696-1.024 38.23-9.216v9.216h87.38c8.192 0 25.942-1.706 36.524-9.216v9.216h132.096v-9.216c6.486 6.144 20.48 9.216 32.428 9.216h74.068v-9.216c7.85 5.462 18.774 9.216 33.792 9.216h50.176v525.996h-959.148v-398.336l29.356 67.242h70.656l9.216-18.774v18.774h82.604l18.092-40.618 17.75 40.62h262.486c11.948 0 22.528-2.39 30.38-9.216v9.216h72.020v-9.216c12.288 6.826 27.648 9.216 45.056 9.216h104.106l9.558-18.774v18.774h77.14l10.582-18.774v18.774h75.092v-157.696h-75.776l-14.336 23.894v-23.894h-94.89l-10.24 25.26h-23.212l-10.582-25.26h-49.152c-19.456 0-33.792 4.438-43.35 9.558v-9.558h-116.736v35.84c0 5.12-1.024 5.462-4.096 5.462h-4.438v-41.302h-225.962v19.456l-8.192-19.456h-47.104l-8.192 19.456v-19.116h-90.796l-10.24 25.26h-23.21l-10.582-25.26h-43.008v-476.844h958.804v289.452c-10.582-5.802-24.918-7.85-39.254-7.85zM845.824 271.19h-52.564v-24.236h52.566c27.308 0 42.326 11.264 42.326 35.84 0 11.606-2.73 18.432-8.192 23.894-6.144 6.144-16.044 8.876-31.062 9.216l-14.678 0.342c-4.438 0-7.51 0.342-10.582 1.366-3.414 1.366-5.802 4.096-5.802 8.534 0 3.754 1.024 6.144 4.096 8.192 2.73 1.706 5.802 2.048 10.924 2.048h49.494v24.236h-54.272c-28.332 0-38.572-17.408-38.572-33.792 0-35.84 31.744-34.134 57.004-35.158 4.778 0 7.51-0.682 9.558-2.39 1.706-1.706 3.414-4.096 3.414-7.51 0-3.072-1.366-5.462-3.072-7.51-1.706-2.39-5.462-3.072-10.582-3.072z" />
<glyph unicode="&#x42;" glyph-name="bitcoin" horiz-adv-x="2506" d="M349 723.2q96 0 177.5-46.5t129-127 47.5-175.5q0-96-46.5-177.5t-127-129.5-175.5-48q-96 0-177.5 46.5t-129 127-47.5 176.5 46.5 177.5 127 129 175.5 47.5zM356 219.2q49-13 85-1.5t51 53.5q22 63-35 93 43 10 50 57 9 59-77 89l16 64-39 9-15-61q-6 1-16.5 3.5t-14.5 3.5l15 62-38 10-16-63q-9 1-25 5v1l-53 13-10-41 28-7q19-5 17-23l-18-72-26-101q-3-13-17-10l-28 8-20-45 51-12q9-3 27-7l-16-65 38-9 16 63q25-7 31-8l-16-63 39-10zM902 449.2q9 4 23 8 12 3 24 3 28 0 47-10 20-9 33-26 11-14 20-38 6-22 6-48 0-40-15-74-13-34-39-61-24-25-59-41-34-15-74-15-1 0-7 0.5t-11 0.5q-7 0-29 2-22 4-35 7-21 5-35 13l99 412 87 13zM1261 547.2q0-10-5-22-4-9-13-18-7-8-18-12-9-5-23-5-18 0-31 10-15 10-15 33 0 10 5 22 4 9 13 18 8 7 18 12 12 5 23 5 16 0 32-11 14-11 14-32zM2142 500.2q-14 10-14 33 0 13 5 22 5 10 12 18 10 8 19 12 12 5 22 5 16 0 32-11 14-11 14-32 0-10-5-22-4-11-12-18-10-8-19-12-9-5-22-5-19 0-32 10zM1385 454.2h95l-17-69h-94l-25-105q-4-18-4-24-1-11 3-20 3-9 12-13 8-4 25-4 9 0 27 2 8 2 26 8l6-65q-24-8-37-11-17-4-47-4-40 0-61 11-21 12-30 32-10 18-8 46 0 25 8 55l55 235 88 14zM350 483.2q2 0 6-1 12-3 19.5-5t21-7 20.5-10.5 12-15.5 2-22q-2-9-7.5-15t-14-8-15.5-3-18.5 0.5-17 2.5-16 4-11.5 3zM1714 378.2q-13 5-23 8-11 4-30 4-43 0-67-28-24-30-24-78 0-29 12-47 13-18 46-18 17 0 32 3 22 7 27 9l6-68q-17-7-34-11-22-5-47-5-34 0-59 11-22 8-41 27-17 20-22 41-8 24-8 48 0 36 13 73 12 34 36 60 21 24 56 40 33 15 74 15 23 0 46-5 15-3 36-13zM1997 427.2q14-16 22-39 7-21 7-49 0-37-10-68-13-38-32-62-21-27-53-44-32-18-73-18-31 0-52 10-24 10-36 25-14 16-22 39-8 24-8 50 0 33 12 68 11 34 32 61t53 44q31 18 71 18 29 0 52-9 21-8 37-26zM2278 440.2q2 1 5 1.5t5.5 1.5 5.5 2 5 2l26 6q15 3 33 6 12 1 40 1 69 0 92-38 25-39 9-106l-39-161h-84l37 158q4 21 5 29 3 13 0 24-1 10-10 17-11 7-26 7-11 0-33-4l-55-231h-85zM1148 454.2h85l-72-299h-83zM2120 454.2h84l-71-299h-84zM261 414.2l4-1q-2 0-4 1zM847 219.2q5 0 6-1h6q2-1 6-1h11q20 0 37 10 17 9 30 26 12 14 21 36 7 24 7 43 0 27-9 42-9 16-34 16-8 0-20-3t-23-12zM1938 293.2q4 17 4 37 0 28-9 45-9 15-33 15-19 0-33-11t-23-27q-11-17-15-36-5-22-5-37 0-29 9-45 10-15 33-15 19 0 33 11 15 10 24 26.5t15 36.5zM321 367.2q2 0 9.5-2t12-3l13.5-3t14-4.5 14-6 13-6.5 10.5-8 8-10 4-12-1.5-14q-2-10-8.5-16.5t-16.5-8.5-18.5-3-22 1-20 3-19.5 4.5-14 3.5z" />
<glyph unicode="&#x44;" glyph-name="discover" horiz-adv-x="2680" d="M1157 173.2q-56-25-104-25-95 0-160 64.5t-65 159.5q0 92 66.5 157.5t160.5 65.5q53 0 102-26v-98q-49 48-104 48-59 0-99.5-43t-40.5-104q0-65 40.5-106t103.5-41q54 0 100 46v-98zM743 488.2q-30 34-68 34-27 0-44.5-13.5t-17.5-33.5q0-17 13.5-28.5t50.5-24.5q72-26 98-54.5t26-79.5q0-62-41.5-101t-106.5-39q-93 0-148 81l54 52q30-57 91-57 28 0 46.5 17t18.5 43q0 27-25 44-14 9-58 24-58 22-81.5 48t-23.5 71q0 52 38.5 87t94.5 35q71 0 126-49zM1417 593.2q96 0 161.5-64.5t65.5-157.5-66-158-161-65q-98 0-163.5 64t-65.5 161q0 92 67 156t162 64zM122 586.2q101 0 165.5-60t64.5-154q0-47-20-90.5t-57-74.5q-62-50-153-50h-122v429h122zM390 586.2h84v-429h-84v429zM1948 586.2h91l-186-439h-44l-181 439h90l114-288zM2076 586.2h237v-73h-153v-95h147v-72h-147v-116h153v-73h-237v429zM2492 586.2q72 0 111-33t39-94q0-49-24.5-80t-71.5-41l134-181h-102l-116 174h-10v-174h-84v429h124zM2476 389.2q81 0 81 66 0 63-81 63h-24v-129h24zM107 230.2q76 0 113 34 22 20 34.5 48.5t12.5 59.5q0 65-47 106-38 35-113 35h-23v-283h23z" />
<glyph unicode="&#x46;" glyph-name="fancy" horiz-adv-x="752" d="M685.29 586.020q0 107.858-91.040 183.822t-218.616 75.964-218.036-75.964-90.462-183.822v-346.77q0-20.876 19.136-36.532t45.81-15.656h168.166v-168.166q0-26.674 22.036-45.23t53.348-18.556 53.93 18.556 22.616 45.23v168.166h169.326q26.674 0 45.23 15.656t18.556 36.532v346.77z" />
<glyph unicode="&#x49;" glyph-name="interac" horiz-adv-x="1018" d="M883.4 887.040q34.2 0 58.5-24.75t24.3-58.95v-754.2q0-34.2-24.3-58.95t-58.5-24.75h-748.8q-34.2 0-58.95 24.75t-24.75 58.95v754.2q0 34.2 24.75 58.95t58.95 24.75h748.8zM948.2 803.34q0 27-18.9 46.35t-45.9 19.35h-748.8q-27 0-46.35-19.35t-19.35-46.35v-754.2q0-27 19.35-46.35t46.35-19.35h748.8q27 0 45.9 19.35t18.9 46.35v754.2zM867.2 698.040q-2.7 9-6.3 12.6-3.6 0.9-11.7 0-9.9-2.7-15.3-13.5-6.3-9.9-6.3-30.6 0-17.1 6.3-24.3 5.4-8.1 15.3-3.6 6.3 2.7 11.7 9 4.5 4.5 8.1 18l35.1 5.4q-0.9-13.5-9-29.7-7.2-16.2-17.1-23.4-12.6-10.8-27-14.4-19.8-5.4-26.1-3.6-12.6 1.8-18 7.2-8.1 7.2-12.6 18-3.6 14.4-3.6 31.5 0 21.6 5.4 37.8 1.8 7.2 10.8 21.6 7.2 12.6 12.6 16.2 8.1 8.1 28.8 14.4 23.4 8.1 36.9-0.9 12.6-8.1 18-29.7zM772.7 612.54q0-11.7 0.9-16.2 0-5.4 4.5-12.6l-36.9-10.8-1.8 7.2q-1.8 5.4-1.8 8.1-8.1-13.5-15.3-18-9-9-22.5-13.5-18.9-4.5-27 2.7-9.9 11.7-9.9 27t7.2 27.9q5.4 10.8 24.3 21.6 24.3 15.3 27 18 9 4.5 14.4 9.9 0 9-2.7 13.5-3.6 3.6-10.8 0.9-7.2-1.8-14.4-9-3.6-7.2-5.4-14.4l-36-5.4q2.7 14.4 6.3 22.5 1.8 7.2 9.9 17.1 9 7.2 15.3 10.8l19.8 8.1q19.8 4.5 27 4.5 9.9 0 18-5.4 4.5-4.5 7.2-13.5 2.7-10.8 2.7-20.7v-60.3zM356.9 362.34q2.7-3.6 10.8-13.050t13.95-16.2 13.95-17.1 13.95-18.45 11.25-17.55 8.1-17.1 2.7-13.95v-261h-155.7q-5.4 13.5-24.3 37.35t-18.9 40.95v242.1q-8.1-3.6-44.55-15.75t-46.35-13.95q-2.7 0-8.55-0.45t-11.25 4.050-5.4 12.6v298.8q0 17.1 18.9 25.2 89.1 36 196.2 70.2 10.8 2.7 18-1.8t7.2-16.2v-308.7zM616.1 651.24q4.5 14.4 10.8 23.4 3.6 7.2 13.5 9.9 7.2 2.7 18-1.8l-10.8-41.4q-9.9 1.8-11.7 0.9-7.2-2.7-11.7-12.6-5.4-15.3-5.4-46.8v-46.8l-37.8-10.8v137.7l35.1 10.8v-22.5zM346.1 664.74q0 3.6-0.9 6.75t-4.5 5.4-9 1.35l-118.8-41.4v-324q13.5 4.5 19.8 8.1v67.5q0 9.9 12.6 20.25t26.1 10.35q5.4 0 11.25-1.35t12.15-4.5 10.8-9.9 4.5-14.85v-169.2h6.3v134.1q29.7 8.1 29.7 20.7v79.2l-37.8-11.7v75.6q0 13.5-3.6 18.9-4.5 4.5-10.8 1.8-4.5-0.9-10.8-9.9-3.6-9.9-3.6-27.9v-66.6l-37.8-11.7v137.7l35.1 11.7v-22.5q10.8 19.8 15.3 24.3 7.2 9 20.7 11.7 15.3 5.4 23.4-5.4 9.9-9 9.9-37.8v123.3zM413.6 525.24q0-10.8 0.9-12.6 4.5-2.7 8.1-1.8 5.4 1.8 10.8 6.3l2.7-36q-15.3-8.1-26.1-11.7-15.3-4.5-20.7-1.8-6.3 3.6-9 12.6-4.5 9-4.5 33.3v49.5l-13.5-5.4v39.6l13.5 4.5v25.2l37.8 37.8v-52.2l21.6 6.3v-38.7l-21.6-6.3v-48.6zM560.3 554.040q-8.1-23.4-20.7-36.9-11.7-11.7-34.2-18.9-18-4.5-31.5-1.8-11.7 6.3-17.1 18.9-9 15.3-9 38.7 0 30.6 15.3 56.7 13.5 22.5 41.4 33.3 22.5 6.3 33.3 0.9 11.7-5.4 18-21.6 7.2-16.2 7.2-42.3v-6.3l-76.5-22.5q1.8-14.4 4.5-17.1 7.2-9 15.3-4.5 6.3 1.8 10.8 7.2 2.7 2.7 6.3 9.9zM735.8 636.84q-0.9-0.9-7.2-5.4t-9.9-6.3q-12.6-9.9-14.4-12.6-2.7-5.4-2.7-9.9 0-8.1 2.7-10.8t9-0.9q4.5 0.9 12.6 7.2 5.4 8.1 8.1 13.5 1.8 9 1.8 17.1v8.1zM166.1 618.84q-1.8-0.9-7.2-2.7t-8.55-3.15-7.65-3.15-7.2-3.6-5.4-4.050-4.050-4.95-1.35-6.3v-294.3q0-10.8 12.6-10.8 9.9 0 28.8 10.8v322.2zM523.4 588.24q0 14.4-5.4 21.6-4.5 4.5-12.6 2.7-7.2-2.7-14.4-15.3-3.6-7.2-3.6-19.8zM226.4 233.64q-4.5-0.9-19.35-5.85t-18.45-4.95q-13.5 0-21.15 10.35t-7.65 23.85q0 11.7 10.8 19.35t32.4 13.95 23.4 7.2v-63.9zM226.4 171.54q-3.6-0.9-12.6-4.5t-15.3-5.4-9.9-1.8q-13.5 0-19.8 9.9t-6.3 18.9q0 10.8 8.1 18t15.75 9.45 22.95 5.4 17.1 3.15v-53.1zM226.4 109.44q-21.6-11.7-30.6-11.7-33.3 0-33.3 31.5 0 4.5 2.25 8.55t5.85 6.75 8.55 4.95 9.9 4.050 10.8 3.15 10.35 1.8 9 1.35 7.2 1.8v-52.2z" />
<glyph unicode="&#x4a;" glyph-name="jcb" horiz-adv-x="1614" d="M1035 469.2q-76 40-157 46-85 7-133-31.5t-48-112.5 48-112.5 133-31.5q79 6 157 46v-89q-84-21-165-25-80-3-142.5 7t-101.5 29.5-64.5 48-35.5 60-10 67.5q0 46 17 83.5t55.5 69.5 110.5 47.5 171 11.5q36-2 77-8t65-12l23-5v-89zM293 571.2h180v-242q0-171-259-171-53 0-106.5 6.5t-80.5 12.5l-27 7v89q97-46 180-46 53 0 83 28t30 74v242zM1494 376.2q53-5 86.5-31.5t33.5-69.5q0-31-17.5-55t-47.5-36.5-68-12.5h-388v400h380q51-2 83.5-28t32.5-70q0-36-25-62.5t-70-33.5v-1zM1259 408.2h110q10 0 12 1 18 3 30 16.5t12 33.5q0 19-12 32.5t-30 16.5q-4 2-12 2h-110v-102zM1380 236.2q11 0 13 1 19 3 31 17.5t12 35.5q0 14-5.5 25.5t-15 18.5-22.5 10l-13 1h-121v-109h121z" />
<glyph unicode="&#x50;" glyph-name="paypal" horiz-adv-x="1828" d="M1725 556h103l-85-384h-102zM273 555q47 0 79.5-34.5t19.5-95.5q-12-59-54.5-92.5t-100.5-33.5h-79l-28-127h-110l84 383h189zM1253 555q47 0 80-34.5t20-95.5q-8-39-30.5-68t-55-43.5-71.5-14.5h-78l-27-127h-110l84 383h188zM411 458q5 1 21.5 5t27.5 6.5 29 5 35 2.5q28 1 52.5-4t45-16 29-33 1.5-52l-42-200h-101l7 30q-21-21-53-30t-60.5-4.5-45.5 31.5-9 71q11 52 62.5 74.5t140.5 22.5q3 15-3 24t-18 12.5-32 2.5q-26-1-56-8t-40-13zM1393 458q6 1 17.5 4t21.5 5.5 22.5 4.5 26 3.5 27.5 1.5q29 1 53.5-4t45-16 29.5-33 2-52l-43-200h-102l7 30q-21-21-53.5-30t-61.5-4.5-46 31.5-9 71q7 36 35 57.5t69 30.5 101 9q5 23-8.5 31.5t-44.5 7.5q-18 0-39-4t-36.5-8.5-23.5-8.5zM205 372q14 0 27.5 7t23 19 12.5 27q6 22-5 37t-32 15h-53l-24-105h51zM1186 372q21 0 40 15.5t24 37.5-6.5 37-31.5 15h-56l-22-105h52zM698 471l41-301-74-126h113l240 427h-104l-100-178-16 178h-100zM532 272q0 10 5 27h-26q-47 0-60-25-10-18-0.5-30t27.5-12q44 2 54 40zM1515 272q2 17 6 27h-25q-50 0-61-25-10-18-0.5-30t27.5-12q45 2 53 40z" />
<glyph unicode="&#x54;" glyph-name="twitter" horiz-adv-x="1018" d="M1000.994 706.136q-41.73-61.552-100.154-104.326 0-4.174 1.044-13.040t1.044-13.040q0-81.376-23.996-162.75t-73.028-155.448-116.326-131.452-161.706-91.808-202.916-34.428q-169.010 0-308.808 90.764 29.212-2.086 47.99-2.086 140.842 0 251.428 85.548-65.726 1.044-117.368 40.166t-72.508 100.674q17.736-4.174 38.6-4.174 28.168 0 53.206 8.346-69.9 14.606-115.802 69.9t-45.904 127.278v2.086q39.646-20.866 90.764-22.952-40.686 27.126-64.684 71.464t-23.996 95.46q0 52.164 26.082 102.24 76.16-94.938 184.138-149.71t234.214-61.032q-7.302 26.082-7.302 45.904 0 83.462 59.468 142.406t145.014 58.944q41.73 0 80.332-16.692t65.726-46.948q68.856 13.562 128.322 49.034-21.908-70.942-88.678-111.63 63.64 8.346 115.802 31.298z" />
<glyph unicode="&#x56;" glyph-name="visa" horiz-adv-x="1386" d="M981 488.2q-40 18-83 17-31 0-47.5-11.5t-16.5-26 14.5-26 48.5-28.5q95-43 94-117 0-68-53-108.5t-142-40.5q-74 1-125 23l15 98 14-8q57-23 106-23 27 0 47 11.5t21 32.5q0 14-13 25.5t-47 28.5q-19 10-33.5 19t-30.5 23.5-25 34-9 41.5q1 63 54.5 102.5t136.5 39.5q53 0 100-17l-14-95zM513 587.2l-177-434h-118l-92 346q48-19 87.5-58t56.5-85q-62 171-270 223l1 8h181q42 0 51-35l39-200 13-60 109 295h119zM671 587.2l-70-434h-112l70 434h112zM1385 153.2h-105q-8 51-12 65l-144 1-23-66h-119l167 399q15 35 59 35h86zM1217 471.2q-3-8-7-18.5t-6.5-17.5-1.5-6q-36-96-45-122h91l-24 126z" />
<glyph unicode="&#x63;" glyph-name="diners_club" horiz-adv-x="888" d="M520 723.2q97 0 180.5-44t135.5-126.5 52-183.5q0-94-51.5-175t-136.5-127.5-180-46.5h-166q-95 0-177 46.5t-129.5 127.5-47.5 175q0 102 48 183.5t128.5 126 177.5 44.5h166zM355 50.2q88 0 162 43t117 117 43 162q0 87-43 161t-117 117-162 43q-87 0-161-43t-117-117-43-161q0-88 43-162t117-117 161-43zM282 182.2q-58 22-94 74t-37 116q1 64 37.5 116.5t93.5 73.5v-380zM429 562.2q57-21 93.5-73.5t36.5-116.5-36.5-116-93.5-74v380z" />
<glyph unicode="&#x64;" glyph-name="dankort" horiz-adv-x="1122" d="M107 651.2q-21-2-51-20-26-16-41-43t-14-58q1 0 1 2h368q35-3 67-13 35-10 61.5-42t34.5-68q1 18 2 38.5t2 45.5 2 39h213q-3-20-5-45t-4-51.5-4-45.5q37 43 109 131 2 2 6 7t6 6h257q1 32-15 59.5t-44 42.5q-16 10-39.5 13t-44.5 1.5-45 0.5h-822zM1120 530.2l1-2 1 2h-2zM1117 529.2h-1q-13-10-26.5-23t-22.5-21.5-25-25.5-21-22-24.5-26.5-21.5-23.5l-2-2q8-10 23-29.5t23.5-31.5 22.5-29.5 25-31 24-29 26-28.5v323zM205 327.2q10 1 36.5-0.5t43.5 1 30 12.5q22 19 21 38-4 14-14 22.5t-25 11-28 3-31 0-26-0.5zM737 374.2q-6-81-9-174-142 1-210 0 2 17 10 140-17-41-28-57-43-69-139-83h-360q0-24 8-45 12-29 39-49.5t57-21.5h892q31 0 52 11 31 13 50.5 43.5t17.5 63.5h-254.5t-5 1-5.5 3.5-3 6.5z" />
<glyph unicode="&#x72;" glyph-name="rss" d="M302.244 72.397c0-70.387-57.059-127.447-127.447-127.447s-127.447 57.059-127.447 127.447c0 70.387 57.059 127.447 127.447 127.447s127.447-57.059 127.447-127.447zM663.344-55.051h-180.551c0 240.026-195.419 435.443-435.443 435.443v0 180.551c339.858 0 615.996-276.134 615.996-615.996zM790.791-55.051c0 411.018-332.423 743.442-743.442 743.442v185.86c512.976 0 929.3-416.326 929.3-929.3h-185.86z" />
<glyph unicode="&#x73;" glyph-name="search" d="M954.368 50.176l-271.872 271.872c41.472 55.296 64.512 124.416 64.512 198.144-4.608 193.536-161.28 350.208-350.208 350.208s-345.6-156.672-345.6-345.6c0-188.928 156.672-345.6 345.6-345.6 73.728 0 142.848 23.040 198.144 64.512l271.872-271.872c23.040-23.040 64.512-27.648 87.552-4.608 23.040 18.432 23.040 59.904 0 82.944zM166.4 524.8c0 129.024 101.376 230.4 230.4 230.4s230.4-101.376 230.4-230.4-101.376-230.4-230.4-230.4c-129.024 0-230.4 101.376-230.4 230.4z" />
<glyph unicode="&#x74;" glyph-name="tumblr" d="M223.91 479.292h96.716v-327.588q0-59.278 13.26-97.498 14.822-35.1 46.018-62.4 30.418-28.078 80.336-46.018 47.578-16.38 108.414-16.38 53.038 0 99.056 11.7 39.778 7.798 103.736 38.22v146.634q-64.736-44.458-134.154-44.458-34.318 0-68.638 17.94-20.28 13.26-30.418 36.662-7.798 25.738-7.798 103.736v239.452h210.592v146.634h-210.592v234.77h-126.356q-6.24-66.298-30.418-117.778-24.178-49.918-60.838-79.558-38.22-35.88-88.918-51.476v-132.592z" />
<glyph unicode="&#x76;" glyph-name="vimeo" horiz-adv-x="1030" d="M10.988 572.742l46.018-61.618q63.958 47.578 77.218 47.578 50.698 0 94.378-161.456 11.7-44.46 38.22-144.684t41.338-154.044q57.718-161.456 145.074-161.456 138.836 0 336.946 266.75 194.212 253.49 201.232 400.904v17.158q0 179.394-143.514 184.072h-10.918q-192.654 0-265.19-236.332 42.12 17.94 73.316 17.94 66.298 0 66.298-68.638 0-8.58-0.78-17.94-4.68-55.38-65.518-151.314-62.4-100.616-92.816-100.616-40.558 0-71.756 152.874-9.36 35.88-39.778 231.652-13.26 84.236-49.138 124.796-31.198 35.098-77.998 35.88-6.24 0-13.26-0.78-49.138-4.68-145.854-89.696-49.918-46.798-143.514-131.036z" />
<glyph unicode="&#x79;" glyph-name="youtube" horiz-adv-x="1066" d="M-10.032 112.462q0-63 41.58-107.096t101.216-44.1h765.21q59.64 0 101.216 44.1t41.578 107.096v608.976q0 63-42 108.356t-100.794 45.36h-765.21q-58.796 0-100.796-45.36t-42-108.356v-608.976zM372.156 222.494v388.906q0 5.88 3.36 9.24 2.52 0.84 4.2 0.84l4.2-0.84 366.224-194.872q3.36-3.36 3.36-8.4 0-3.36-3.36-6.72l-366.224-194.872q-1.678-1.678-3.36-1.678-3.36 0-5.040 1.678-3.36 3.36-3.36 6.72z" />
<glyph unicode="&#xe600;" glyph-name="cart" horiz-adv-x="1006" d="M969.527 636.709c-7.351 8.942-17.902 10.606-28.16 10.606-0.037 0-0.091 0-0.128 0l-594.395 54.857c-13.915 0-21.358-4.571-25.161-9.216-4.023-4.901-8.174-13.458-4.791-29.934l103.241-292.114c8.32-20.827 32.859-34.45 54.674-34.45h430.117c22.162 0 43.721 14.592 48.183 37.138l24.759 234.057c2.286 11.319-0.768 19.84-8.338 29.056zM875.886 281.6h-483.712l-137.179 429.184c0 0-14.007 40.997-18.542 54.199-7.058 20.517-14.958 28.617-35.602 28.617-20.37 0-153.527 0-153.527 0-21.065 0-38.309-15.506-38.309-36.571s17.243-36.571 38.309-36.571h123.557l153.691-485.358c6.473-19.438 15.104-26.642 48.256-26.642s503.040 0 503.040 0c21.065 0 38.309 15.506 38.309 36.571 0.018 21.065-17.225 36.571-38.29 36.571zM533.723 90.624c0-42.355-34.335-76.69-76.69-76.69s-76.69 34.335-76.69 76.69c0 42.355 34.335 76.69 76.69 76.69s76.69-34.335 76.69-76.69zM862.866 90.624c0-42.355-34.335-76.69-76.69-76.69s-76.69 34.335-76.69 76.69c0 42.355 34.335 76.69 76.69 76.69s76.69-34.335 76.69-76.69z" />
<glyph unicode="&#xe601;" glyph-name="hamburger" d="M61.44 716.8h901.12v-102.4h-901.12v102.4zM61.44 471.040h901.12v-102.4h-901.12v102.4zM61.44 204.8h901.12v-102.4h-901.12v102.4z" />
<glyph unicode="&#xe602;" glyph-name="minus" d="M61.44 471.040h901.12v-102.4h-901.12v102.4z" />
<glyph unicode="&#xe603;" glyph-name="plus" d="M942.080 471.040h-389.12v389.12h-102.4v-389.12h-409.6v-122.88h409.6v-389.12h102.4v389.12h389.12z" />
<glyph unicode="&#xe604;" glyph-name="x" d="M860.16 122.88l-266.24 286.72 266.24 286.72-61.44 61.44-286.72-266.24-286.72 266.24-61.44-61.44 266.24-286.72-266.24-286.72 61.44-61.44 286.72 266.24 286.72-266.24z" />
<glyph unicode="&#xe605;" glyph-name="customer" d="M888.832 137.899c-66.901 30.037-144.725 86.016-286.72 103.765 42.325 32.768 62.805 101.035 99.669 193.877 0 1.365 1.365 2.731 1.365 4.096 8.192-1.365 16.384-1.365 23.211 2.731 16.384 10.923 27.307 68.267 27.307 96.939 0 42.325-20.48 38.229-20.48 38.229s0 0-1.365 0c0 2.731 0 6.827 0 9.557 0 38.229 8.192 102.4-2.731 139.264-15.019 54.613-36.864 98.304-73.728 114.688-49.152 20.48-118.784 77.824-141.995 77.824-27.307 0-99.669-57.344-141.995-79.189-35.499-19.115-58.709-60.075-73.728-114.688-9.557-35.499-2.731-98.304-2.731-139.264 0-2.731 0-6.827 0-9.557-1.365 0-1.365 0-1.365 0s-21.845 4.096-20.48-38.229c0-28.672 10.923-86.016 27.307-96.939 6.827-4.096 15.019-4.096 23.211-2.731 0-1.365 1.365-2.731 1.365-4.096 36.864-92.843 55.979-161.109 98.304-193.877-140.629-17.749-218.453-75.093-283.989-103.765-133.803-60.075-135.168-125.611-135.168-125.611v-110.592h1018.539v110.592c1.365 0 1.365 66.901-133.803 126.976z" />
<glyph unicode="&#xe607;" glyph-name="arrow-down" d="M163.84 614.4c0 0 327.68-430.080 327.68-430.080 20.48 0 348.16 430.080 348.16 430.080h-675.84z" />
<glyph unicode="&#xe608;" glyph-name="pinterest" d="M880.64 614.4c-20.48 184.32-204.8 266.24-409.6 245.76-143.36-20.48-307.2-143.36-307.2-327.68 0-102.4 20.48-184.32 122.88-204.8 40.96 81.92-20.48 102.4-20.48 143.36-40.96 225.28 266.24 389.12 430.080 225.28 102.4-122.88 40.96-450.56-143.36-430.080-163.84 40.96 81.92 307.2-61.44 368.64-102.4 40.96-163.84-143.36-122.88-225.28-40.96-143.36-102.4-286.72-61.44-491.52 81.92 61.44 122.88 184.32 143.36 307.2 40.96-20.48 61.44-61.44 122.88-61.44 204.8 20.48 327.68 245.76 307.2 450.56z" />
<glyph unicode="&#xe609;" glyph-name="facebook" d="M593.92-81.92v450.56h143.36l20.48 163.84h-163.84v102.4c0 40.96 20.48 81.92 81.92 81.92h81.92v163.84c-20.48 0-61.44 0-143.36 0-122.88 0-225.28-81.92-225.28-225.28v-122.88h-143.36v-163.84h143.36v-450.56h204.8z" />
<glyph unicode="&#xe800;" glyph-name="amazon_payments" horiz-adv-x="1634" d="M329.195 302.946c-8.192 0-15.438-0.946-23.315-3.467v-100.825c7.875-3.779 14.179-5.355 22.683-5.355 30.563 0 48.835 21.107 48.835 56.083 0 33.714-17.96 53.563-48.203 53.563zM946.118 302.946c-18.906 0-32.768-16.384-34.343-40.014h65.851c-1.259 20.48-11.342 40.014-31.507 40.014zM447.661 238.67c-7.563-3.779-11.659-11.027-11.659-20.163 0-15.438 9.451-25.203 24.259-25.203 16.699 0 29.299 11.027 37.491 19.534v32.139l-23.315-0.627c-11.971-0.627-20.163-2.203-26.779-5.672zM436.319 583.996c-20.48 0-42.535-4.411-42.535-28.672 0-12.288 6.299-20.795 17.33-20.795 7.875 0 15.123 5.042 19.851 12.915 5.672 9.768 5.355 19.219 5.355 30.247v6.299zM1070.884 637.556c-21.107 0-22.371-28.672-22.371-46.631s-0.315-56.083 22.055-56.083c22.055 0 23.315 30.875 23.315 49.779 0 12.288-0.627 27.098-4.411 38.755-3.15 10.083-9.768 14.179-18.587 14.179zM767.781 555.008c0-12.288 6.299-20.795 17.33-20.795 7.875 0 15.123 5.042 19.851 12.915 5.672 9.768 5.355 19.219 5.355 30.247v6.299c-20.48 0.315-42.535-4.096-42.535-28.672zM1374.621 819.357h-1115.375c-52.931 0-96.099-48.203-96.099-107.443v-604.317c0-59.547 43.163-107.443 96.099-107.443h1115.375c52.931 0 96.099 48.203 96.099 107.443v604.317c0 59.235-42.851 107.443-96.099 107.443zM879.947 537.998c0 3.467 0 9.138 3.467 14.491l56.395 80.659h-49.152c-2.835 0-5.355 2.203-5.355 5.355v20.795c0 3.15 2.522 5.355 5.355 5.355h93.891c2.835 0 5.355-2.203 5.355-5.355v-17.96c0-2.835-2.522-6.931-6.931-13.234l-48.523-69.315c17.96 0.315 37.179-2.203 53.563-11.342 3.779-2.203 4.723-5.042 5.042-8.192v-22.371c0-3.15-3.467-6.618-6.931-4.723-28.987 15.123-67.111 16.699-99.251-0.315-3.15-1.574-6.618 1.891-6.618 4.723v21.426zM882.785 486.323c30.563 21.426 80.975 15.438 86.643 8.192 5.987-7.246-1.574-57.659-30.247-81.603-4.411-3.779-8.507-1.574-6.618 3.15 6.618 16.067 21.107 52.299 14.179 61.123s-45.371 4.096-62.699 2.203c-5.355-0.946-5.987 3.779-1.259 6.931zM806.853 631.257c-3.467 5.355-10.083 7.563-16.067 7.563-11.027 0-20.48-5.672-23.002-17.33-0.627-2.522-2.522-5.042-5.042-5.355l-27.726 2.835c-2.203 0.627-5.042 2.522-4.411 5.987 6.299 33.714 36.547 43.795 63.961 43.795 13.864 0 32.139-3.779 42.851-14.179 13.864-12.915 12.603-30.247 12.603-49.152v-44.427c0-13.234 5.672-19.219 10.714-26.467 1.891-2.522 2.203-5.672 0-7.563-5.987-5.042-16.067-13.864-22.055-18.906v0c-1.891-1.574-4.723-1.891-6.618-0.627-9.451 7.875-11.027 11.659-16.384 18.906-15.755-16.067-26.779-20.795-46.947-20.795-23.947 0-42.851 14.81-42.851 44.427 0 23.315 12.603 39.067 30.563 46.631 15.438 6.931 37.179 8.192 53.563 9.768v3.779c0.315 7.246 0.946 15.123-3.15 21.107zM509.417 658.983c0 2.835 2.522 5.355 5.355 5.355h26.467c2.835 0 5.042-2.203 5.355-5.042v-19.219h0.627c6.931 18.587 19.851 27.098 37.491 27.098 17.96 0 28.987-8.507 36.864-27.098 6.931 18.587 22.683 27.098 39.385 27.098 11.971 0 25.203-5.042 33.083-16.067 9.138-12.288 7.246-30.247 7.246-46.002v-92.315c0-2.835-2.522-5.355-5.672-5.355h-28.355c-2.835 0.315-5.042 2.522-5.042 5.355v77.825c0 6.299 0.627 21.426-0.627 27.411-2.203 9.768-8.507 12.603-16.699 12.603-6.931 0-14.179-4.723-17.011-11.971s-2.522-19.851-2.522-28.043v-77.507c0-2.835-2.522-5.355-5.355-5.355h-28.672c-2.835 0.315-5.042 2.522-5.042 5.355v77.507c0 16.384 2.522 40.331-17.643 40.331-20.48 0-19.851-23.315-19.851-40.331v-77.507c0-2.835-2.522-5.355-5.355-5.355h-28.672c-2.835 0.315-5.042 2.203-5.042 4.723v146.51zM731.861 426.139c59.547 0 124.774 12.288 184.636 37.81 9.138 3.779 16.699-5.987 7.875-12.603-53.563-39.385-131.39-60.491-198.183-60.491-93.891 0-178.332 34.659-241.98 92.315-5.042 4.411-0.627 10.714 5.355 7.246 69.003-40.014 154.074-64.275 242.292-64.275zM432.853 631.257c-3.467 5.355-10.083 7.563-16.067 7.563-11.027 0-20.48-5.672-23.002-17.33-0.315-2.522-2.203-5.042-5.042-5.355l-27.726 2.835c-2.203 0.627-5.042 2.522-4.411 5.987 6.299 33.714 36.547 43.795 63.961 43.795 13.864 0 32.139-3.779 42.851-14.179 13.864-12.915 12.603-30.247 12.603-49.152v-44.427c0-13.234 5.672-19.219 10.714-26.467 1.891-2.522 2.203-5.672 0-7.563-5.987-5.042-16.067-13.864-22.055-18.906v0c-1.891-1.574-4.723-1.891-6.618-0.627-9.451 7.875-11.027 11.659-16.384 18.906-15.755-16.067-26.779-20.795-46.947-20.795-23.947 0-42.851 14.81-42.851 44.427 0 23.315 12.603 39.067 30.563 46.631 15.438 6.931 37.179 8.192 53.563 9.768v3.779c0.315 7.246 0.627 15.123-3.15 21.107zM328.563 172.82c-7.563 0-15.438 1.574-22.683 4.096v-66.795c0-1.891-1.574-3.15-3.15-3.15h-15.438c-1.891 0-3.15 1.574-3.15 3.15v201.651c0 1.259 0.946 2.522 1.891 2.835 13.864 5.355 29.299 8.192 43.163 8.192 44.11 0 70.579-27.726 70.579-74.355 0.315-44.427-28.987-75.619-71.207-75.619zM504.689 175.655c-1.574 0-2.835 0.946-3.15 2.522l-2.203 11.027c-12.288-11.027-25.835-16.384-40.014-16.384-27.098 0-46.002 18.587-46.002 45.056 0 18.275 8.819 32.451 25.203 40.014 9.768 4.411 20.48 5.672 34.971 6.299l24.576 0.627v7.246c0 19.534-9.768 30.247-27.726 30.247-16.699 0-27.098-5.355-36.864-11.342-0.627-0.627-1.574-0.627-2.522-0.315s-1.574 0.627-1.891 1.574l-6.618 11.971c-0.946 1.574-0.315 3.467 0.946 4.411 18.275 11.971 35.918 14.491 47.577 14.491 31.193 0 49.152-17.643 49.152-48.523v-43.481c0-28.043 0.946-43.795 2.835-51.043 0.315-0.946 0-1.891-0.627-2.835-0.627-0.627-1.574-1.259-2.522-1.259h-15.123zM656.874 315.549l-50.727-150.926c-17.33-50.727-39.385-57.659-60.491-57.659-9.138 0-15.438 1.259-22.683 4.096-1.574 0.627-2.203 2.203-1.891 3.779l3.467 13.547c0.315 0.946 0.946 1.574 1.574 2.203 0.946 0.315 1.891 0.315 2.522 0 5.355-2.203 11.027-3.15 17.011-3.15 19.219 0 32.768 15.755 42.535 49.779l-59.865 138.006c-0.315 0.946-0.315 2.203 0.315 3.15s1.574 1.574 2.522 1.574h17.643c1.259 0 2.522-0.627 2.835-1.891l46.631-109.646 35.603 109.334c0.315 1.259 1.574 2.203 3.15 2.203h16.699c0.946 0 1.891-0.627 2.522-1.259 0.627-1.259 0.946-2.203 0.627-3.15zM867.347 179.121c0-1.891-1.574-3.15-3.15-3.15h-15.438c-1.891 0-3.15 1.574-3.15 3.15v87.591c0 25.203-6.618 35.603-22.371 35.603-16.067 0-31.193-11.342-42.851-21.739 0.315-2.835 0.315-5.672 0.315-8.507v-93.263c0-1.891-1.574-3.15-3.15-3.15h-15.438c-1.891 0-3.15 1.574-3.15 3.15v87.591c0 25.203-6.618 35.603-22.371 35.603s-29.931-10.395-42.851-21.739v-101.771c0-1.891-1.574-3.15-3.15-3.15h-15.438c-1.891 0-3.15 1.574-3.15 3.15v137.374c0 1.891 1.574 3.15 3.15 3.15h12.915c1.574 0 2.835-1.259 3.15-2.835l1.574-12.915c16.067 12.915 30.875 18.906 46.002 18.906 16.384 0 29.299-8.192 36.235-22.371 17.33 14.81 34.343 22.371 50.411 22.371 20.163 0 41.906-13.234 41.906-50.727v-92.315zM1001.252 246.548c0-1.891-1.574-3.15-3.15-3.15h-86.331c1.259-23.63 13.547-50.098 45.371-50.098 13.234 0 24.576 4.723 31.822 8.819 0.627 0.315 1.574 0.627 2.522 0.315s1.574-0.946 1.891-1.574l5.355-11.342c0.627-1.574 0.315-3.15-1.259-4.096-11.342-7.563-28.355-12.603-43.481-12.603-39.699 0-65.219 30.247-65.219 77.195 0 42.851 23.63 72.779 57.343 72.779 34.027 0 55.139-27.726 55.139-72.779v-3.467zM1134.847 179.121c0-1.891-1.574-3.15-3.15-3.15h-15.438c-1.891 0-3.15 1.574-3.15 3.15v87.591c0 32.139-13.234 35.603-23.315 35.603-15.755 0-29.931-10.395-42.851-21.739v-101.771c0-1.891-1.574-3.15-3.15-3.15h-15.438c-1.891 0-3.15 1.574-3.15 3.15v137.374c0 1.891 1.574 3.15 3.15 3.15h12.915c1.574 0 2.835-1.259 3.15-2.835l1.574-12.915c16.067 12.915 30.875 18.906 46.002 18.906 20.795 0 42.851-13.234 42.851-50.727v-92.633zM1070.572 504.595c-41.587 0-64.275 36.547-64.275 81.603 0 45.683 23.002 80.975 64.275 80.975 42.219 0 65.219-36.235 65.219-82.547 0-44.427-25.203-80.027-65.219-80.027zM1238.189 185.74c-7.875-5.987-20.48-12.915-34.027-12.915-19.534 0-30.247 11.659-30.247 33.083v93.891h-19.219c-1.891 0-3.15 1.574-3.15 3.15v13.234c0 1.891 1.574 3.15 3.15 3.15h19.219v27.726c0 1.259 0.946 2.522 2.203 3.15l15.438 5.355c0.946 0.315 2.203 0.315 2.835-0.315 0.946-0.627 1.259-1.574 1.259-2.522v-33.083h37.491c0.946 0 2.203-0.627 2.522-1.259 0.627-0.946 0.627-1.891 0.315-2.835l-5.355-13.234c-0.627-1.259-1.574-1.891-3.15-1.891h-32.139v-92.633c0-12.603 6.299-13.864 11.342-13.864 8.192 0 16.384 4.723 22.371 9.138 0.627 0.627 1.891 0.627 2.522 0.315 0.946-0.315 1.574-0.946 2.203-1.891l5.355-11.342c0.627-1.891 0-3.467-0.946-4.411zM1235.041 512.473v79.399c0 16.067 1.891 39.385-17.96 39.385-6.931 0-13.234-4.723-16.384-11.659-4.096-8.819-4.411-17.96-4.411-27.726v-78.771c0-2.835-2.522-5.355-5.672-5.355h-28.355c-2.835 0.315-5.042 2.522-5.042 5.355v146.51c0.315 2.522 2.522 4.723 5.355 4.723h26.467c2.522 0 4.411-1.891 5.042-4.096v-22.371h0.627c7.875 20.163 19.219 29.618 38.755 29.618 12.915 0 25.203-4.723 33.395-17.33 7.563-11.659 7.563-31.507 7.563-45.683v-92.315c-0.315-2.522-2.522-4.723-5.355-4.723h-28.672c-2.835 0.627-5.042 2.522-5.355 5.042zM1290.493 172.82c-18.587 0-32.451 7.246-39.067 11.659-1.259 0.946-1.891 2.522-1.259 3.779l5.355 12.603c0.315 0.946 0.946 1.574 1.891 1.891s1.891 0.315 2.522-0.315c6.299-3.779 15.755-9.138 31.507-9.138 8.507 0 28.355 2.203 28.355 21.739 0 13.234-11.971 18.587-26.151 24.891l-2.522 1.259c-15.755 7.246-35.603 16.067-35.603 42.535 0 19.534 14.491 39.385 46.947 39.385 13.864 0 25.522-3.467 32.768-6.618 1.259-0.627 1.891-1.574 1.891-2.835v-14.179c0-0.946-0.627-2.203-1.574-2.522-0.946-0.627-2.203-0.627-3.15-0.315-7.246 3.467-16.699 6.618-29.618 6.618-17.33 0-26.151-5.987-26.151-17.96 0-12.288 10.395-17.96 26.151-25.203l1.891-0.946c9.768-4.411 19.534-9.138 26.779-16.699 6.618-6.931 9.768-15.755 9.768-26.779 0.946-26.151-19.219-42.851-50.727-42.851z" />
<glyph unicode="&#xe900;" glyph-name="arrow-left" d="M368.64 204.8l61.44 61.44-102.4 102.4h552.96v102.4h-552.96l102.4 102.4-61.44 61.44-225.28-225.28z" />
<glyph unicode="&#xe901;" glyph-name="arrow-right" d="M655.36 634.88l-61.44-61.44 102.4-102.4h-552.96v-102.4h552.96l-102.4-102.4 61.44-61.44 225.28 204.8z" />
<glyph unicode="&#xe902;" glyph-name="dwolla" horiz-adv-x="2396" d="M2141.399 211.87c-12.358 0-24.716 0-37.074 0-12.358 37.074-28.835 70.030-41.193 107.104-53.551 0-102.984 0-156.537 0-12.358-37.074-28.835-70.030-41.193-107.104-82.388 0-164.774 0-251.281 0 0 119.463 0 350.146 0 350.146h32.956c0 0 0-210.088 0-317.191 65.909 0 127.7 0 193.61 0 41.193 107.104 127.7 321.311 127.7 321.311h37.074c0 0 12.358-28.835 20.598-45.314 37.074-94.746 74.149-193.61 111.223-292.475 0-4.119 0-8.239 4.119-8.239 0-4.119 0-8.239 0-8.239zM1988.982 520.823c-24.716-57.672-49.432-111.223-70.030-173.014 45.314 0 86.507 0 131.821 0-20.598 61.791-41.193 119.463-61.791 173.014zM856.157 265.421c24.716 98.865 78.268 296.595 78.268 296.595h32.956c0 0-61.791-234.804-94.746-350.146-12.358 0-24.716 0-37.074 0-28.835 102.984-57.672 205.968-86.507 308.953 0 0-4.119 0-4.119 0-28.835-102.984-57.672-205.968-86.507-304.833-12.358-4.119-24.716 0-37.074 0-32.956 115.342-94.746 350.146-94.746 350.146h37.074c0 0 49.432-197.73 78.268-296.595 0 0 4.119 0 4.119 0 28.835 98.865 53.551 197.73 82.388 296.595 16.477 0 28.835 0 41.193 0 28.835-98.865 53.551-197.73 82.388-296.595 0-4.119 4.119-4.119 4.119-4.119zM234.133 211.87c0 119.463 0 354.266 0 354.266h53.551c0 0 65.909 0 98.865-4.119 65.909-8.239 111.223-45.314 127.7-111.223 12.358-45.314 12.358-94.746 0-140.058-16.477-61.791-57.672-90.626-119.463-98.865-57.672-4.119-107.104 0-160.655 0zM267.087 240.705c32.956 0 65.909-4.119 98.865 0 65.909 4.119 98.865 37.074 111.223 94.746 8.239 37.074 8.239 74.149-4.119 111.223-8.239 37.074-32.956 61.791-70.030 74.149-45.314 16.477-90.626 8.239-140.058 8.239 4.119-94.746 4.119-189.491 4.119-288.355zM975.618 384.884c0 45.314 8.239 82.388 32.956 119.463 61.791 94.746 226.565 94.746 275.997-20.598 28.835-61.791 28.835-127.7 0-189.491-28.835-65.909-82.388-94.746-156.537-90.626-65.909 4.119-115.342 37.074-140.058 98.865-8.239 24.716-12.358 53.551-12.358 82.388zM1272.213 389.002c0 32.956-8.239 65.909-24.716 94.746-45.314 70.030-152.416 78.268-201.849 12.358-45.314-57.672-45.314-160.655-4.119-218.326 45.314-61.791 156.537-61.791 201.849 4.119 20.598 32.956 28.835 65.909 28.835 107.104zM1383.436 240.705c65.909 0 131.821 0 193.61 0 8.239-8.239 4.119-16.477 4.119-28.835-78.268 0-152.416 0-230.684 0 0 115.342 0 346.027 0 346.027h32.956c0 0 0-210.088 0-317.191z" />
<glyph unicode="&#xe903;" glyph-name="forbrugsforeningen" horiz-adv-x="1037" d="M375.467-14.441c19.692 5.251 37.415 13.128 53.826 24.287 49.231 32.821 80.082 78.113 94.523 134.564 7.877 30.851 11.815 61.703 11.159 93.867-1.313 33.477-0.656 66.954 0 101.087 0 15.754 0.656 16.41 15.754 16.41 35.446 0 70.892 0 106.338 0 5.251 0 10.503 0 15.754 0 13.128 0.656 15.097 1.969 15.754 15.754 0.656 36.103 0.656 72.205 0 108.964 0 16.41-1.313 18.379-18.379 18.379-38.728 0-78.113 0-116.841 0-19.036 0-19.692 0-18.379 19.036 1.969 40.041 19.036 70.892 57.108 87.303 16.41 6.564 32.821 12.472 51.2 11.815 1.969 0 3.282 0 5.251 0 40.041 2.626 40.041 2.626 40.041 42.667 0 46.605 0 93.21 0 138.503 6.564 5.908 11.159 3.282 16.41 1.313 79.426-27.569 131.938-82.051 160.164-160.164 19.036-51.856 28.882-106.338 31.508-161.477 1.969-47.918 3.282-95.836 0-143.097-4.595-67.61-18.379-133.251-51.2-193.641-33.477-61.046-82.708-103.713-147.036-129.969-55.795-22.318-114.215-32.821-174.605-31.508-43.323 0.656-86.646 0-129.969 0.656-6.564-1.313-13.128-3.938-18.379 5.251zM576.985 822.482c-0.656-4.595-4.595-3.938-7.877-4.595-55.138-1.969-97.805-27.569-137.846-63.015-38.072-34.133-53.169-76.8-60.39-124.718-5.251-34.79-10.503-69.579-11.159-104.369 0-2.626 0-5.251-0.656-7.877-3.282-19.036-3.282-19.036-22.974-19.036-74.831 0-150.318 0-225.149 0-4.595 0-8.533-1.313-13.785 2.626 3.938 50.544 10.503 100.431 28.226 149.662 28.226 78.769 82.051 128 161.477 152.287 37.415 11.159 74.831 15.754 112.903 20.349 57.108 7.221 114.215 2.626 171.323 3.282 2.626-0.656 5.251-1.313 5.908-4.595zM256 4.595c-63.015 21.005-105.682 63.015-128.656 124.718-15.097 40.041-24.287 82.051-27.569 125.374-1.969 28.882-3.938 57.764-5.251 86.646-0.656 9.846 1.969 14.441 13.128 14.441 78.769-0.656 156.882 0 235.651 0 9.846 0 13.785-2.626 13.785-13.128-0.656-35.446-0.656-70.892 0-105.682 0-10.503-4.595-18.379-10.503-26.256-19.692-27.569-44.636-45.949-78.769-51.2-9.19-1.313-7.877-7.877-7.877-13.785 0-40.697 0-81.395 0-122.092-1.313-5.908 1.313-12.472-3.938-19.036z" />
<glyph unicode="&#xe904;" glyph-name="cirrus" horiz-adv-x="1184" d="M716 262.208q-28.992-95.008-100.992-164 98.016-79.008 223.008-79.008 95.008 0 176.512 47.008t128.512 128.512 47.008 176.512q0 71.008-28 136.512t-75.008 112.512-112.512 75.008-136.512 28q-124.992 0-223.008-79.008 72-68.992 100.992-164h-28q-27.008 82.016-92.992 146.016-66.016-63.008-92-146.016h-28.992q27.008 92.992 99.008 164-99.008 79.008-220.992 79.008-95.008 0-176.512-47.008t-128.512-128.512-47.008-176.512 47.008-176.512 128.512-128.512 176.512-47.008q122.016 0 220.992 79.008-72 71.008-99.008 164h28.992q26.016-83.008 92-146.016 66.016 64 92.992 146.016h28zM368.992 476.192q-2.016-14.016-8-36.992-48 22.016-84 0-32-24.992-28.992-70.016 3.008-22.016 24-32.992 31.008-10.016 71.008 8-0.992-6.016-3.008-14.496t-3.488-15.008-3.488-11.488q-47.008-14.016-87.008-0.992-20 7.008-34.496 24.512t-15.488 37.504q-4 20.992 1.504 42.016t19.488 38.496 34.016 27.488q48.992 24 118.016 4zM551.008 405.216q-4.992 0.992-10.016-0.512t-9.504-4.512-8-7.008-5.504-8.992q-4-8.992-7.008-21.504t-4.992-21.504-4.992-23.488-4-21.504h-52.992l2.016 10.016q3.008 15.008 14.016 63.488t15.008 74.496h44.992q0-0.992-3.008-23.008l7.488 7.488t11.488 10.016 14.496 5.504 23.488 0.992l-15.008-42.016zM672.992 403.2l-8 2.016q-18.016 3.008-32-20.992-4.992-8.992-8.512-21.504t-4.992-21.504-4.512-23.488-4-21.504h-52.992l3.008 10.016q3.008 15.008 8.992 43.488t10.496 51.488 7.488 43.008h46.016q0.992-8.992-3.008-23.008l8 8t11.488 10.016 15.008 5.504 23.488 0.512zM864 329.216q24-6.016 46.016-6.016 28 0 28 12.992 0 6.016-4 8.992t-19.008 8.992q-39.008 12.992-39.008 42.016 0 11.008 4 19.488t12.992 15.488 24 11.008 36 4q32 0 46.016-3.008l-8-34.016q-12.992 0.992-36 0.992-26.016 0-26.016-11.008 0-6.016 4-8.992t20-8q36-12.992 36-42.016 0-50.016-79.008-50.016-6.016 0-28 2.016-11.008 0-14.016 0.992l-8.992 0.992h-3.008zM442.016 444.192l-30.016-148h-51.008l30.016 148h51.008zM838.016 334.208l-6.016-38.016h-47.008l4 24q-24.992-28-56.992-28-22.016 0-34.496 14.496t-12.512 36.512q0 0.992 4 31.008l14.016 68.992h50.016l-14.016-68.992q0-2.016-2.016-9.504t-2.016-12.512q0-7.008 6.496-12.512t15.488-4.512q31.008 0 39.008 40l14.016 68h52z" />
<glyph unicode="&#xe905;" glyph-name="maestro" horiz-adv-x="1570" d="M944.701 541.247c-25.491 83.544-69.92 155.671-133.288 216.381 86.201 69.492 184.27 104.239 294.206 104.239 83.544 0 160.963-20.672 232.257-62.016s127.816-97.866 169.565-169.565c41.75-71.699 62.647-149.321 62.692-232.865s-20.852-161.166-62.692-232.865c-41.84-71.699-98.361-128.221-169.565-169.565s-148.623-62.016-232.257-62.016c-109.936 0-208.004 34.746-294.206 104.239 63.322 60.71 107.752 132.837 133.288 216.381h-38.237c-24.635-73.005-65.101-137.228-121.398-192.669-57.197 54.54-98.091 118.763-122.681 192.669h-38.237c24.635-82.688 68.614-154.815 131.937-216.381-87.958-69.492-185.148-104.239-291.571-104.239-83.544 0-161.166 20.672-232.865 62.016s-128.221 97.866-169.565 169.565c-41.344 71.699-62.016 149.321-62.016 232.865s20.672 161.166 62.016 232.865c41.344 71.699 97.866 128.221 169.565 169.565s149.321 62.016 232.865 62.016c106.423 0 203.613-34.746 291.571-104.239-63.322-61.566-107.301-133.693-131.937-216.381h38.237c24.635 73.906 65.529 138.129 122.681 192.669 56.297-55.396 96.762-119.619 121.398-192.669h38.237zM424.859 290.547l46.208 234.892h-92.349l-63.367-145.11-3.986 145.11h-89.714l-44.857-234.892h52.761l34.318 179.428 9.255-179.428h52.761l77.824 180.779-35.602-180.779h56.747zM1071.369 335.404c-2.657-0.901-7.499-1.351-14.524-1.351-13.196 0-19.794 4.391-19.794 13.173 0 2.657 0.45 5.742 1.351 9.255l14.525 79.175h29.049l7.904 44.857h-29.049l7.904 44.857h-56.747l-27.698-145.11-1.351-15.808-2.635-18.443c-1.756-7.026-2.635-12.746-2.635-17.159 0-28.148 15.403-42.222 46.208-42.222 8.782 0 21.978 2.207 39.588 6.62l7.904 42.155zM628.067 392.151c3.513 18.465 5.269 31.211 5.269 38.237 0 8.782-1.531 16.709-4.594 23.78s-7.904 13.016-14.525 17.835c-6.62 4.819-14.547 8.557-23.78 11.214s-19.569 3.986-31.008 3.986c-11.439 0-34.746-3.963-69.92-11.89l-7.904-42.222 5.269 1.351 9.255 2.635c15.853 3.513 31.256 5.269 46.208 5.269 24.635 0 36.953-6.148 36.953-18.443 0-0.901-0.225-2.657-0.676-5.269s-0.676-5.247-0.676-7.904c-6.17 1.756-14.097 2.635-23.78 2.635-32.562 0-57.625-6.598-75.19-19.794s-26.369-31.233-26.414-54.112c0-15.853 4.842-28.396 14.525-37.629s22.429-13.849 38.237-13.849c26.392 0 46.186 7.927 59.382 23.78v-21.145h47.492v5.269l1.351 7.904 1.351 9.255 2.635 11.89 10.539 67.218zM808.847 342.025c-18.465-7.026-38.687-10.539-60.665-10.539-32.562 0-48.843 10.989-48.843 32.967v6.62h113.494c5.269 18.465 7.904 33.868 7.904 46.208 0 21.122-6.823 38.056-20.469 50.802s-32.787 19.118-57.422 19.118c-29.049 0-53.009-10.786-71.879-32.359s-28.328-48.618-28.373-81.135c0-57.197 32.539-85.796 97.618-85.796 21.978 0 41.772 2.207 59.382 6.62l9.255 47.492zM1407.864 377.626c0.901 7.026 1.351 14.502 1.351 22.429 0 25.491-7.927 46.388-23.78 62.692s-38.282 24.433-67.286 24.388c-33.418 0-60.237-10.561-80.459-31.684s-30.333-48.392-30.333-81.81c0-58.053 29.905-87.079 89.714-87.079 65.079 0 102.032 30.355 110.859 91.065h-0.068zM975.102 481.865c-29.049 2.657-46.208 3.986-51.478 3.986-20.222 0-36.931-3.085-50.126-9.255s-22.654-13.871-28.373-23.104c-5.72-9.233-8.58-20.019-8.58-32.359 0-23.735 14.952-40.894 44.857-51.478 0.901-0.901 2.229-1.779 3.986-2.635 7.927-3.513 13.196-5.922 15.808-7.228s4.594-3.063 5.945-5.269c1.351-2.207 2.004-4.616 1.959-7.228 0-11.439-11.439-17.159-34.318-17.159-12.295 0-29.454 2.207-51.478 6.62l-7.904-43.574h2.635l10.539-2.635c0.901 0 3.108-0.225 6.62-0.676s6.598-0.676 9.255-0.676c5.269 0 11.417-0.225 18.443-0.676s11.417-0.676 13.173-0.676c59.809 0 89.714 21.122 89.714 63.367 0 24.635-14.074 42.673-42.222 54.112-12.295 5.269-19.771 8.782-22.429 10.539s-3.986 4.391-3.986 7.904c0 11.439 9.683 17.159 29.049 17.159 6.17 0 19.794-0.878 40.871-2.635l8.039 43.574zM1140.005 290.547c9.683 58.053 18.037 95.659 25.063 112.818s17.587 25.739 31.684 25.739h6.62l6.62-3.986 21.145 54.112c-3.513 1.756-6.148 2.635-7.904 2.635h-10.539c-16.709 0-32.99-9.683-48.843-29.049l5.269 27.698h-52.761l-34.318-190.035h58.030l-0.068 0.068zM704.608 409.31c6.17 22.879 18.916 34.318 38.237 34.318 17.61 0 26.414-8.354 26.414-25.063 0-1.756-0.225-3.513-0.676-5.269s-0.676-3.085-0.676-3.986h-63.3zM1318.15 440.994c20.222 0 30.333-13.196 30.333-39.588 0-2.657-0.225-6.395-0.676-11.214s-0.676-8.107-0.676-9.863c-1.756-9.683-5.269-18.263-10.539-25.739s-10.989-12.971-17.159-16.484c-6.17-3.513-11.439-5.269-15.808-5.269-21.978 0-32.967 14.525-32.967 43.574 0 15.853 4.391 30.58 13.173 44.182s20.222 20.424 34.318 20.469v-0.068zM509.304 347.294c0 20.222 16.281 30.333 48.843 30.333 0.901 0 2.432-0.225 4.594-0.676s4.571-0.676 7.228-0.676c0-9.683-1.756-18.037-5.269-25.063s-8.354-12.52-14.525-16.484c-6.17-3.963-13.218-5.945-21.145-5.945-13.196 0-19.794 6.148-19.794 18.443l0.068 0.068z" />
<glyph unicode="&#xe906;" glyph-name="master" horiz-adv-x="1570" d="M1186.159 364.163c-36.652 0-43.996-16.238-43.996-29.847 0-6.805 4.177-18.865 19.404-18.865 29.847 0 36.181 39.28 35.103 47.702-1.078 0-2.089 1.078-10.511 1.078v-0.067zM755.964 430.663c-27.22 0-32.475-30.925-32.475-34.025h55.518c-0.539 2.628 4.716 34.025-23.043 34.025v0zM378.727 364.163c-36.652 0-43.996-16.238-43.996-29.847 0-6.805 4.177-18.865 19.404-18.865 29.847 0 36.181 39.28 35.103 47.702-1.078 0-2.089 1.078-10.511 1.078v-0.067zM1433.428 425.475c-22.032 0-39.28-25.67-39.28-63.94 0-23.582 8.355-38.741 26.209-38.741 27.22 0 39.819 35.103 39.819 61.312 0.539 28.837-8.894 41.369-26.748 41.369v0zM1112.248 856.68c-113.73 0-217.961-41.908-298.138-110.564 59.223-56.057 103.759-126.801 128.351-206.439h-22.032c-24.121 73.844-66.567 139.872-122.085 192.29-55.518-52.418-97.964-117.908-122.085-192.29h-22.032c25.67 82.805 73.372 156.649 136.234 213.244-82.266 71.284-189.124 114.202-305.953 114.202-258.858 0-468.396-209.606-468.396-468.396s209.606-468.396 468.396-468.396c116.83 0 223.755 42.986 305.953 113.73-56.596 51.34-100.592 115.819-127.812 188.652h22.504c25.131-63.94 63.94-121.007 113.191-167.159 49.252 46.085 87.993 103.22 113.191 167.159h22.504c-25.67-69.667-67.039-131.518-119.996-181.308 80.177-68.656 184.408-110.564 298.138-110.564 252.524 0 457.953 205.361 457.953 457.953s-205.361 457.953-457.953 457.953l0.067-0.067zM213.657 277.181l28.298 178.681-63.94-178.681h-34.025l-4.177 178.681-30.386-178.681h-48.174l39.819 237.365h72.833l2.089-145.666 49.252 145.666h78.56l-39.28-237.365h-50.869zM383.983 277.181l1.55 18.865c-1.078 0-15.699-23.043-51.34-23.043-18.326 0-48.174 9.972-48.174 53.429 0 55.518 45.074 73.844 88.532 73.844 6.805 0 21.493-1.078 21.493-1.078s1.55 3.167 1.55 12.599c0 15.227-13.61 17.316-31.936 17.316-32.475 0-54.507-8.894-54.507-8.894l7.344 42.986c0 0 26.209 10.982 60.234 10.982 17.787 0 68.656-2.089 68.656-60.234l-19.404-137.244h-43.996v0.472zM568.929 337.954c0-66.028-63.94-63.401-75.461-63.401-41.908 0-54.507 5.794-56.057 6.266l6.805 43.457c0 0.539 20.954-7.344 43.996-7.344 13.61 0 30.925 1.078 30.925 17.316 0 24.121-62.323 18.326-62.323 75.461 0 50.33 37.191 64.95 74.383 64.95 28.298 0 46.085-3.638 46.085-3.638l-6.266-43.996c0 0-27.22 2.089-34.025 2.089-17.787 0-27.22-3.638-27.22-16.238 0-25.67 59.223-13.071 59.223-74.922h-0.067zM641.762 422.847l-14.149-86.443c-1.078-6.805 1.078-16.238 18.326-16.238 4.177 0 9.433 1.55 12.599 1.55l-6.266-42.447c-5.255-1.55-19.404-6.266-37.191-6.266-23.043 0-39.819 13.071-39.819 42.447 0 19.943 28.298 182.319 29.376 183.397h49.791l-5.255-29.376h24.592l-6.266-46.624h-25.738zM762.769 317c25.131 0 52.89 12.060 52.89 12.060l-8.894-48.174c0 0-16.238-8.355-52.418-8.355-39.819 0-85.904 16.777-85.904 86.982 0 60.773 37.191 114.741 86.982 114.741 54.507 0 71.284-39.819 71.284-72.833 0-13.071-6.266-45.613-6.266-45.613h-101.67c0 1.078-9.433-38.741 43.996-38.741v-0.067zM928.379 413.954c-34.564 12.060-37.191-54.507-51.879-137.244h-51.34l30.925 192.829h46.624l-4.177-27.759c0 0 16.777 30.386 38.741 30.386 6.266 0 9.433-0.539 9.433-0.539-6.266-13.61-12.599-25.67-18.326-57.606v-0.067zM1071.418 279.809c0 0-26.748-6.805-43.457-6.805-59.223 0-89.61 40.897-89.61 103.22 0 93.787 56.057 143.578 113.73 143.578 25.67 0 56.057-12.060 56.057-12.060l-8.355-52.89c0 0-20.415 14.149-45.613 14.149-34.025 0-64.411-32.475-64.411-91.159 0-28.837 14.149-56.057 49.252-56.057 16.777 0 41.369 12.060 41.369 12.060l-8.894-53.968-0.067-0.067zM1191.347 277.181l1.55 18.865c-1.078 0-15.699-23.043-51.34-23.043-18.326 0-48.174 9.972-48.174 53.429 0 55.518 45.074 73.844 88.532 73.844 6.805 0 21.493-1.078 21.493-1.078s1.55 3.167 1.55 12.599c0 15.227-13.61 17.316-31.936 17.316-32.475 0-54.507-8.894-54.507-8.894l7.344 42.986c0 0 26.209 10.982 60.234 10.982 17.787 0 68.656-2.089 68.656-60.234l-19.404-137.244c-0.539 0.539-43.996 0.539-43.996 0.539v-0.067zM1294.566 276.642h-51.34l30.925 192.829h46.624l-4.177-27.759c0 0 16.777 30.386 38.741 30.386 6.266 0 9.433-0.539 9.433-0.539-6.805-13.61-12.599-25.67-18.326-57.606-34.564 12.060-37.191-55.046-51.879-137.244v-0.067zM1447.038 277.181l2.089 17.787c0 0-16.777-20.954-46.624-20.954-41.369 0-61.851 39.819-61.851 80.716 0 63.401 38.269 118.447 83.815 118.447 29.376 0 48.174-25.67 48.174-25.67l10.982 66.567h49.791l-38.269-236.826h-48.174l0.067-0.067zM1540.353 278.191c-2.628-1.55-4.716-2.089-7.344-2.089s-5.255 0.539-7.344 2.089c-2.628 1.55-4.177 3.167-5.794 5.794s-2.089 4.716-2.089 7.344c0 2.628 0.539 5.255 2.089 7.344 1.55 2.628 3.167 4.177 5.794 5.794s4.716 2.089 7.344 2.089c2.628 0 5.255-0.539 7.344-2.089 2.628-1.078 4.177-3.167 5.794-5.794s2.089-4.716 2.089-7.344c0-2.628-0.539-5.255-2.089-7.344-1.55-2.628-3.638-4.716-5.794-5.794v0zM1538.736 302.312c-2.089 1.078-4.177 1.55-6.266 1.55s-4.177-0.539-6.266-1.55c-2.089-1.078-3.638-2.628-4.716-4.716s-1.55-4.177-1.55-6.266c0-2.089 0.539-4.177 1.55-6.266 1.078-2.089 2.628-3.638 4.716-4.716s4.177-1.55 6.266-1.55c2.089 0 4.177 0.539 6.266 1.55s3.638 2.628 4.716 4.716c1.078 2.089 1.55 4.177 1.55 6.266s-0.539 4.177-1.55 6.266c-1.078 2.089-2.628 3.638-4.716 4.716v0zM1536.648 282.908l-1.55 2.628c-1.078 2.089-2.089 3.167-2.628 3.638s-1.078 0.539-2.089 0.539h-1.55v-6.805h-2.628v16.238h5.794c2.089 0 3.167 0 4.177-0.539s1.55-1.078 2.089-1.55c0.539-0.539 0.539-1.55 0.539-2.628s-0.539-2.089-1.078-3.167c-1.078-1.078-2.089-1.55-3.167-1.55 0.539 0 1.078-0.539 1.55-1.078s1.55-1.55 2.628-3.167l2.089-3.167h-4.177v0.606zM1535.637 294.496c0 0.539 0 1.078-0.539 1.078-0.539 0.539-0.539 0.539-1.078 1.078-0.539 0-1.55 0.539-2.628 0.539h-3.167v-4.716h3.167c1.55 0 2.628 0 3.167 0.539 1.078 0.539 1.078 1.078 1.078 1.55v-0.067z" />
<glyph unicode="&#xe907;" glyph-name="instagram" d="M512 822.6c134.6 0 150.4-0.6 203.6-3 49.2-2.2 75.8-10.4 93.6-17.4 23.6-9.2 40.4-20 58-37.6s28.6-34.4 37.6-58c6.8-17.8 15.2-44.4 17.4-93.6 2.4-53.2 3-69 3-203.6s-0.6-150.4-3-203.6c-2.2-49.2-10.4-75.8-17.4-93.6-9.2-23.6-20-40.4-37.6-58s-34.4-28.6-58-37.6c-17.8-6.8-44.4-15.2-93.6-17.4-53.2-2.4-69-3-203.6-3s-150.4 0.6-203.6 3c-49.2 2.2-75.8 10.4-93.6 17.4-23.6 9.2-40.4 20-58 37.6s-28.6 34.4-37.6 58c-6.8 17.8-15.2 44.4-17.4 93.6-2.4 53.2-3 69-3 203.6s0.6 150.4 3 203.6c2.2 49.2 10.4 75.8 17.4 93.6 9.2 23.6 20 40.4 37.6 58s34.4 28.6 58 37.6c17.8 6.8 44.4 15.2 93.6 17.4 53.2 2.6 69 3 203.6 3zM512 913.4c-136.8 0-154-0.6-207.8-3-53.6-2.4-90.2-11-122.2-23.4-33.2-12.8-61.2-30.2-89.2-58.2s-45.2-56.2-58.2-89.2c-12.4-32-21-68.6-23.4-122.4-2.4-53.6-3-70.8-3-207.6s0.6-154 3-207.8c2.4-53.6 11-90.2 23.4-122.4 12.8-33.2 30.2-61.2 58.2-89.2s56.2-45.2 89.2-58.2c32-12.4 68.6-21 122.4-23.4s70.8-3 207.8-3 154 0.6 207.8 3c53.6 2.4 90.2 11 122.4 23.4 33.2 12.8 61.2 30.2 89.2 58.2s45.2 56.2 58.2 89.2c12.4 32 21 68.6 23.4 122.4s3 70.8 3 207.8-0.6 154-3 207.8c-2.4 53.6-11 90.2-23.4 122.4-12.8 33.2-30.2 61.2-58.2 89.2s-56.2 45.2-89.2 58.2c-32 12.4-68.6 21-122.4 23.4-54 2.2-71.2 2.8-208 2.8v0zM512 668.4c-142.8 0-258.8-115.8-258.8-258.8s116-258.8 258.8-258.8 258.8 116 258.8 258.8-116 258.8-258.8 258.8zM512 241.6c-92.8 0-168 75.2-168 168s75.2 168 168 168c92.8 0 168-75.2 168-168s-75.2-168-168-168zM841.4 678.6c0-33.358-27.042-60.4-60.4-60.4s-60.4 27.042-60.4 60.4c0 33.358 27.042 60.4 60.4 60.4s60.4-27.042 60.4-60.4z" />
<glyph unicode="&#xe908;" glyph-name="dogecoin" d="M512 921.6c-282.331 0-512-229.669-512-512s229.669-512 512-512c282.331 0 512 229.669 512 512s-229.669 512-512 512v0zM748.983 298.423c-11.703-36.571-30.72-65.829-52.663-87.771-17.554-17.554-40.96-30.72-70.217-39.497-21.943-7.314-51.2-10.24-89.234-10.24h-188.709v210.651h-87.771v73.143h87.771v213.577h182.857c40.96 0 73.143-2.926 95.086-8.777 29.257-8.777 54.126-23.406 74.606-45.349s36.571-48.274 46.811-80.457c10.24-32.183 16.091-70.217 16.091-117.029 0-42.423-4.389-77.531-14.629-108.251v0zM621.714 545.646c-11.703 11.703-27.794 19.017-46.811 23.406-14.629 2.926-40.96 4.389-81.92 4.389h-45.349v-128.731h84.846v-73.143h-84.846v-127.269h74.606c27.794 0 48.274 1.463 59.977 4.389 16.091 4.389 29.257 10.24 40.96 20.48 10.24 10.24 19.017 26.331 26.331 48.274s10.24 52.663 10.24 90.697c0 38.034-2.926 67.291-10.24 89.234-5.851 20.48-16.091 36.571-27.794 48.274v0z" />
<glyph unicode="&#xe909;" glyph-name="litecoin" d="M512 921.6c-282.331 0-512-229.669-512-512s229.669-512 512-512c282.331 0 512 229.669 512 512s-229.669 512-512 512v0zM708.023 165.303h-403.749l40.96 157.989-55.589-20.48 14.629 62.903 57.051 20.48 67.291 266.24h163.84l-57.051-201.874 65.829 24.869-19.017-64.366-65.829-23.406-36.571-128.731h253.074l-24.869-93.623z" />
<glyph unicode="&#xe90a;" glyph-name="google_plus" horiz-adv-x="1707" d="M579.821 475.346v-167.367h276.81c-11.173-71.805-83.665-210.572-276.81-210.572-166.643 0-302.626 138.081-302.626 308.194s135.983 308.194 302.626 308.194c94.838 0 158.291-40.459 194.556-75.313l132.475 127.594c-85.075 79.508-195.243 127.594-327.031 127.594-269.87 0-488.107-218.237-488.107-488.107s218.237-488.107 488.107-488.107c281.691 0 468.582 198.026 468.582 476.934 0 32.070-3.47 56.475-7.665 80.881h-460.918zM1625.78 475.346h-139.454v139.454h-139.454v-139.454h-139.454v-139.454h139.454v-139.454h139.454v139.454h139.454z" />
<glyph unicode="&#xe90b;" glyph-name="snapchat" d="M995.9 202.684c-129.002 21.267-187.96 154.915-189.871 159.204-0.289 0.823-0.867 2.156-1.245 2.933-3.889 7.867-7.822 18.911-4.534 26.667 5.689 13.423 32.49 21.934 48.557 27.023 5.645 1.8 11.001 3.511 15.2 5.155 38.934 15.378 58.424 35.578 57.979 60.068-0.378 19.712-15.467 37.712-37.645 45.557-7.756 3.244-16.578 4.956-25.512 4.956-6.111 0-15.289-0.867-24.156-5-14.822-6.955-27.912-10.689-37.157-11.111-2 0.089-3.711 0.289-5.2 0.534l0.933 15.267c4.356 69.157 9.778 155.203-13.578 207.605-68.846 154.27-214.871 166.248-258.072 166.248l-19.623-0.178c-43.023 0-188.738-11.978-257.495-166.159-23.378-52.401-17.956-138.425-13.601-207.538l0.178-2.667c0.267-4.245 0.534-8.444 0.778-12.578-9.623-1.733-28.445 1.467-47.957 10.6-26.557 12.378-74.424-4-81.024-38.69-2.911-15.378 0.645-44.512 57.224-66.891 4.222-1.688 9.578-3.4 15.267-5.178 16.001-5.089 42.779-13.578 48.49-27.023 3.289-7.778-0.622-18.779-5.244-28.245-2.422-5.666-61.024-139.248-190.316-160.537-16.489-2.667-28.223-17.267-27.289-34.089 0.267-4.466 1.334-8.911 3.178-13.245 11.733-27.467 54.335-46.379 133.892-59.38 1.378-4.623 2.911-11.578 3.756-15.467 1.711-7.822 3.489-15.867 5.933-24.201 2.311-7.867 10.401-26.178 35.623-26.178 7.6 0 15.978 1.645 24.867 3.378 13.245 2.6 29.734 5.823 50.913 5.823 11.778 0 23.956-1.022 36.178-3.066 22.579-3.756 43.001-18.179 66.69-34.912 36.979-26.156 78.891-55.779 143.892-55.779 1.711 0 3.444 0.044 5.111 0.155 2.4-0.111 4.8-0.155 7.244-0.155 64.98 0 106.936 29.645 143.981 55.824 22.6 16.001 43.956 31.090 66.557 34.867 12.267 2.023 24.467 3.066 36.223 3.066 20.423 0 36.534-2.623 50.934-5.445 10.312-2.023 18.444-3 25.978-3 16.867 0 29.757 9.667 34.445 25.756 2.445 8.223 4.222 16.090 5.956 24.045 0.645 3 2.288 10.445 3.756 15.378 79.557 12.978 122.181 31.867 133.826 59.134 1.866 4.311 2.956 8.823 3.244 13.512 0.889 16.645-10.8 31.222-27.267 33.956z" />
<glyph unicode="&#xe90c;" glyph-name="apple_pay" horiz-adv-x="1600" d="M1457.067 938.667h14.933c4.267 0 8.533 0 12.8 0 8.533 0 17.067 0 27.733-2.133 8.533-2.133 14.933-4.267 23.467-6.4s12.8-8.533 19.2-12.8c6.4-6.4 10.667-12.8 12.8-19.2 4.267-6.4 6.4-14.933 6.4-23.467 2.133-10.667 4.267-19.2 4.267-27.733 0-4.267 0-8.533 0-12.8 0-6.4 0-10.667 0-17.067v-738.133c0-6.4 0-10.667 0-17.067 0-4.267 0-8.533 0-12.8 0-8.533 0-17.067-2.133-27.733-2.133-8.533-4.267-14.933-6.4-23.467-4.267-6.4-8.533-12.8-12.8-19.2-6.4-6.4-12.8-10.667-19.2-12.8-6.4-4.267-14.933-6.4-23.467-6.4-10.667-2.133-21.333-2.133-27.733-2.133-4.267 0-8.533 0-12.8 0-6.4 0-10.667 0-17.067 0h-1314.133c0 0 0 0 0 0-6.4 0-10.667 0-17.067 0-4.267 0-8.533 0-12.8 0-8.533 0-17.067 0-27.733 2.133-8.533 2.133-14.933 4.267-23.467 6.4-6.4 4.267-12.8 8.533-19.2 12.8-6.4 6.4-10.667 12.8-12.8 19.2-4.267 6.4-6.4 14.933-6.4 23.467-2.133 10.667-2.133 19.2-2.133 27.733 0 4.267 0 8.533 0 12.8v770.133c0 4.267 0 8.533 0 12.8 0 8.533 0 17.067 2.133 27.733 2.133 8.533 4.267 17.067 8.533 23.467s8.533 12.8 12.8 19.2c6.4 4.267 12.8 10.667 19.2 12.8 6.4 4.267 14.933 6.4 23.467 6.4 8.533 4.267 17.067 4.267 25.6 4.267 4.267 0 8.533 0 14.933 0h1329.067zM1457.067 960h-1314.133c-4.267 0-10.667 0-17.067 0-4.267 0-8.533 0-12.8 0-10.667 0-19.2 0-29.867-2.133s-19.2-6.4-29.867-10.667c-8.533-4.267-17.067-10.667-23.467-17.067s-12.8-14.933-17.067-23.467c-4.267-10.667-8.533-19.2-10.667-29.867 0-10.667-2.133-19.2-2.133-29.867 0-4.267 0-8.533 0-12.8 0-6.4 0-10.667 0-17.067v-738.133c0-6.4 0-10.667 0-17.067 0-4.267 0-8.533 0-12.8 0-10.667 0-19.2 2.133-29.867s4.267-19.2 8.533-27.733c4.267-8.533 10.667-17.067 17.067-23.467s14.933-12.8 23.467-17.067c8.533-4.267 19.2-8.533 27.733-8.533 14.933-4.267 23.467-6.4 34.133-6.4 4.267 0 8.533 0 12.8 0 6.4 0 10.667 0 17.067 0h1314.133c6.4 0 10.667 0 17.067 0 4.267 0 8.533 0 12.8 0 10.667 0 19.2 0 29.867 2.133s19.2 4.267 27.733 8.533c8.533 4.267 17.067 10.667 23.467 17.067s12.8 14.933 17.067 23.467c4.267 8.533 8.533 19.2 8.533 27.733 2.133 10.667 2.133 19.2 2.133 29.867 0 4.267 0 8.533 0 12.8 0 6.4 0 10.667 0 17.067v742.4c0 6.4 0 10.667 0 17.067 0 4.267 0 8.533 0 12.8 0 10.667 0 19.2-2.133 29.867s-4.267 19.2-8.533 27.733c-4.267 8.533-10.667 17.067-17.067 23.467s-14.933 12.8-23.467 17.067c-8.533 4.267-19.2 8.533-27.733 8.533-10.667 4.267-19.2 6.4-29.867 6.4-4.267 0-8.533 0-12.8 0-6.4 0-12.8 0-17.067 0v0zM477.867 652.8c14.933 17.067 25.6 42.667 21.333 68.267-21.333 0-46.933-14.933-61.867-32-12.8-14.933-25.6-40.533-21.333-66.133 21.333-2.133 46.933 12.8 61.867 29.867zM537.6 494.933c0 53.333 42.667 78.933 44.8 81.067-25.6 36.267-64 40.533-76.8 42.667-32 4.267-64-19.2-81.067-19.2s-42.667 19.2-70.4 19.2c-36.267 0-68.267-21.333-87.467-53.333-36.267-64-8.533-160 27.733-213.333 17.067-25.6 38.4-55.467 66.133-53.333 27.733 0 36.267 17.067 68.267 17.067s40.533-17.067 70.4-17.067c29.867 0 46.933 25.6 64 51.2 21.333 29.867 27.733 59.733 29.867 59.733s-53.333 21.333-55.467 85.333zM881.067 652.8c-10.667 10.667-25.6 19.2-40.533 23.467-17.067 6.4-36.267 8.533-59.733 8.533-14.933 0-29.867 0-42.667-2.133s-25.6-2.133-36.267-4.267h-4.267v-377.6h34.133v157.867c10.667-2.133 25.6-2.133 40.533-2.133 19.2 0 38.4 2.133 53.333 6.4 17.067 4.267 32 12.8 42.667 23.467 12.8 10.667 21.333 23.467 29.867 38.4 6.4 14.933 10.667 32 10.667 51.2 0 17.067-2.133 32-8.533 42.667-2.133 12.8-8.533 25.6-19.2 34.133zM849.067 509.867c-17.067-14.933-42.667-21.333-74.667-21.333-8.533 0-17.067 0-25.6 2.133-6.4 0-12.8 2.133-17.067 2.133v160c4.267 0 10.667 2.133 17.067 2.133 8.533 0 19.2 2.133 29.867 2.133 14.933 0 27.733-2.133 38.4-4.267 10.667-4.267 21.333-8.533 29.867-14.933s14.933-14.933 19.2-25.6c4.267-10.667 6.4-21.333 6.4-36.267 4.267-29.867-4.267-53.333-23.467-66.133zM1115.733 334.933c0 10.667 0 21.333 0 32v104.533c0 12.8-2.133 25.6-4.267 38.4s-6.4 25.6-14.933 34.133c-6.4 10.667-17.067 19.2-29.867 25.6s-27.733 10.667-46.933 10.667c-14.933 0-27.733-2.133-40.533-6.4s-25.6-10.667-38.4-17.067v-2.133l10.667-27.733 4.267 2.133c8.533 6.4 19.2 10.667 29.867 14.933s21.333 4.267 32 4.267c14.933 0 25.6-2.133 34.133-8.533 8.533-4.267 14.933-10.667 19.2-19.2s6.4-14.933 8.533-23.467c2.133-8.533 2.133-17.067 2.133-23.467v-2.133c-51.2 0-91.733-8.533-117.333-25.6-27.733-17.067-42.667-42.667-42.667-74.667 0-8.533 2.133-19.2 4.267-27.733 4.267-8.533 8.533-17.067 14.933-25.6 6.4-6.4 14.933-12.8 25.6-17.067s21.333-6.4 36.267-6.4c10.667 0 21.333 2.133 29.867 4.267s17.067 6.4 23.467 10.667c6.4 4.267 12.8 8.533 19.2 14.933 2.133 2.133 4.267 4.267 6.4 6.4h2.133l2.133-29.867h34.133v4.267c-2.133 10.667-4.267 19.2-4.267 29.867zM1081.6 388.267c0-4.267 0-8.533-2.133-14.933s-4.267-12.8-8.533-19.2c-4.267-6.4-8.533-10.667-14.933-14.933s-12.8-8.533-21.333-10.667-17.067-4.267-27.733-4.267c-6.4 0-12.8 0-17.067 2.133-6.4 2.133-10.667 4.267-14.933 8.533s-8.533 8.533-10.667 14.933c-2.133 6.4-4.267 14.933-4.267 23.467 0 14.933 4.267 27.733 12.8 36.267s19.2 17.067 29.867 21.333c12.8 4.267 25.6 8.533 40.533 8.533 12.8 2.133 23.467 2.133 36.267 2.133 2.133 0 2.133 0 4.267 0-2.133 2.133-2.133-53.333-2.133-53.333zM1350.4 573.867l-64-174.933c-4.267-10.667-8.533-21.333-10.667-32-2.133-4.267-4.267-10.667-4.267-14.933h-2.133c-2.133 4.267-2.133 10.667-4.267 14.933-4.267 10.667-6.4 21.333-10.667 29.867l-68.267 174.933h-36.267l98.133-251.733c2.133-6.4 2.133-8.533 2.133-10.667 0 0 0-2.133-2.133-10.667-6.4-14.933-12.8-27.733-21.333-38.4s-14.933-19.2-21.333-25.6c-6.4-6.4-14.933-12.8-23.467-19.2-8.533-4.267-14.933-8.533-21.333-10.667l-4.267-2.133 12.8-29.867 4.267 2.133c2.133 2.133 8.533 4.267 17.067 8.533s19.2 10.667 29.867 21.333c8.533 8.533 17.067 17.067 25.6 27.733 6.4 10.667 14.933 23.467 21.333 36.267s14.933 29.867 21.333 44.8c6.4 17.067 14.933 36.267 21.333 55.467l78.933 200.533c-2.133 4.267-38.4 4.267-38.4 4.267z" />
</font>
</defs>
</svg>
